21 Jump Street 2012 R5 NEW LiNE XViD 2012

21 Jump Street 2012 R5 NEW LiNE XViD 2012 Category: Movies Size: 1.4 GB in 3 files Grabbed On: 30-04-2012 from a torrent source TITLE: 21 Jump Street

إضافة رد
 
LinkBack أدوات الموضوع انواع عرض الموضوع
  #1 (permalink)  
قديم 2012-05-16, 05:02 PM

 
تاريخ التسجيل: Feb 2012
المشاركات: 1,479
نار الحب is on a distinguished road
إرسال رسالة عبر ICQ إلى نار الحب
افتراضي 21 Jump Street 2012 R5 NEW LiNE XViD 2012

2012 , 21 , jump , line , r5 , street , xvid

21 Jump Street 2012 R5 NEW LiNE XViD 2012


21 Jump Street 2012 R5 NEW LiNE XViD 2012 4629794127081.jpg

Category: Movies
Size: 1.4 GB in 3 files
Grabbed On: 30-04-2012 from a torrent source


21 Jump Street 2012 R5 NEW LiNE XViD 2012 633354w02FY.png

21 Jump Street 2012 R5 NEW LiNE XViD 2012 674130ewLU.png


TITLE:
21 Jump Street 2012 R5 NEW LiNE XViD

STATS:

Video
ID : 0
Format : MPEG-4 Visual
Format settings, BVOP : 2
Format settings, QPel : No
Format settings, GMC : No warppoints
Format settings, Matrix : Default (MPEG)
Muxing mode : Packed bitstream
Codec ID : XVID
Codec ID/Hint : XviD
Duration : 1h 45mn
Bit rate : 1 736 Kbps
Width : 720 pixels
Height : 304 pixels
Display aspect ratio : 2.35:1
Frame rate : 25.000 fps
Color space : YUV
Chroma subsampling : 4:2:0
Bit depth : 8 bits
Scan type : Progressive
Compression mode : Lossy
Bits/(Pixel*Frame) : 0.317
Stream size : 1.28 GiB (93%)
Writing library : XViD 64

Audio
ID : 1
Format : MPEG Audio
Format version : Version 1
Format profile : Layer 3
Codec ID : 55
Codec ID/Hint : MP3
Duration : 1h 45mn
Bit rate mode : Constant
Bit rate : 128 Kbps
Channel(s) : 2 channels
Sampling rate : 48.0 KHz
Compression mode : Lossy
Stream size : 96.6 MiB (7%)
Alignment : Split accross interleaves
Interleave, duration : 40 ms (1.00 video frame)
Interleave, preload duration : 500 ms

NOTES

Ok here we go we our version which is not a re-encode of the dvdrip but ripped straight from the DVDR
The dvdr was ok but was a bit lifeless and also had a faint LiNE 2pixels under the top black border.
Audio is new and different too all other releases and is 10x better aswell.



المصدر منتديات قلب - قسم افلام

رد مع اقتباس
إضافة رد

مواقع النشر (المفضلة)

الكلمات الدليلية (Tags)
2012, 21, jump, line, r5, street, xvid



جديد مواضيع قسم افلام
 
أدوات الموضوع
انواع عرض الموضوع

21 Jump Street 2012 R5 NEW LiNE XViD 2012


RSS RSS 2.0 XML MAP HTML


الساعة الآن 11:08 AM


Powered by vBulletin Copyright ©2000 - 2014

Security team


Search Engine Optimization by vBSEO 3.6.0