The Avengers 2012

The Avengers 2012 Category: Movies Size: 1.8 GB in 8 files Grabbed On: 27-04-2012 from a torrent source DOWNLOADING THE FILM Just You need uTorrent: download the film : Enjoy

إضافة رد
 
LinkBack أدوات الموضوع انواع عرض الموضوع
  #1 (permalink)  
قديم 2012-05-15, 09:23 AM

 
تاريخ التسجيل: Feb 2012
المشاركات: 1,479
نار الحب is on a distinguished road
إرسال رسالة عبر ICQ إلى نار الحب
افتراضي The Avengers 2012


The Avengers 2012

The Avengers 2012 mini_8792434125056.j

Category: Movies
Size: 1.8 GB in 8 files
Grabbed On: 27-04-2012 from a torrent source

DOWNLOADING THE FILM
Just You need uTorrent:http://www.filesin.com/859F5221048/download.html
download the film :http://www.filesin.com/AD6F5221058/download.html
Enjoy


The Avengers 2012 mini_373290103983gth The Avengers 2012 mini_367185103985gth The Avengers 2012 mini_90257899731gth.


Code:
The.Avengers.2012.CAM.V2.XViD-26K
Plot:
Nick Fury of S.H.I.E.L.D. brings together a team of super humans to form The Avengers to help save the Earth from Loki and his army.

Sources:
video-thnxs
audio-thnxs
subs-greek...


Video
ID : 0
Format : MPEG-4 Visual
Format settings, BVOP : 2
Format settings, QPel : No
Format settings, GMC : No warppoints
Format settings, Matrix : Default (H.263)
Codec ID : XVID
Codec ID/Hint : XviD
Duration : 2h 11mn
Bit rate : 1 599 Kbps
Width : 720 pixels
Height : 240 pixels
Display aspect ratio : 3.000
Frame rate : 30.000 fps
Color space : YUV
Chroma subsampling : 4:2:0
Bit depth : 8 bits
Scan type : Progressive
Compression mode : Lossy
Bits/(Pixel*Frame) : 0.309
Stream size : 1.47 GiB (89%)
Writing library : XviD 64

Audio
ID : 1
Format : MPEG Audio
Format version : Version 1
Format profile : Layer 3
Mode : Joint stereo
Mode extension : MS Stereo
Codec ID : 55
Codec ID/Hint : MP3
Duration : 1h 43mn
Source duration : 2h 11mn
Bit rate mode : Constant
Bit rate : 192 Kbps
Channel(s) : 2 channels
Sampling rate : 44.1 KHz
Compression mode : Lossy
Stream size : 181 MiB (11%)
Alignment : Aligned on interleaves
Interleave, duration : 26 ms (0.78 video frame)

المصدر منتديات قلب - قسم افلام

رد مع اقتباس
إضافة رد

مواقع النشر (المفضلة)

الكلمات الدليلية (Tags)
2012, avengers



جديد مواضيع قسم افلام
 
أدوات الموضوع
انواع عرض الموضوع

The Avengers 2012


RSS RSS 2.0 XML MAP HTML


الساعة الآن 06:02 PM


Powered by vBulletin Copyright ©2000 - 2014

Security team


Search Engine Optimization by vBSEO 3.6.0